路月球在苏醒

2022-07-04

英雄联盟正版手游官网免费下载手机版

请给我发一下《月球在苏醒》视频清晰完整版 178031795@qq.com

你没有看邮箱啊!都已经发给你了。
我的邮箱是:柏拉图<906850630@qq.com>;
文件信息
G:\月球在苏醒.wmv
General
Complete name : G:\综艺\月球在苏醒.wmv
Format : Windows Media
File size : 457 MiB
Duration : 1h 12mn
Overall bit rate mode : Constant
Overall bit rate : 878 Kbps
Maximum Overall bit rate : 1 165 Kbps
Encoded date : UTC 2009-11-22 20:28:10.000
Comment : Chines Caption
Video #2
ID : 2
Format : VC-1
Format profile : MP
Codec ID : WMV3
Codec ID/Info : Windows Media Video 9
Codec ID/Hint : WMV3
Description of the codec : Windows Media Video 9 - Professional
Duration : 1h 12mn
Bit rate mode : Constant
Bit rate : 1 024 Kbps
Width : 640 pixels
Height : 480 pixels
Display aspect ratio : 4:3
Frame rate : 30.000 fps
Bit depth : 8 bits
Scan type : Progressive
Compression mode : Lossy
Bits/(Pixel*Frame) : 0.111
Stream size : 534 MiB
Language : English (US)
Audio #1
ID : 1
Format : WMA
Format version : Version 2
Codec ID : 161
Codec ID/Info : Windows Media Audio
Description of the codec : Windows Media Audio 9.2 - 128 kbps, 44 kHz, stereo (A/V) 1-pass CBR
Duration : 1h 12mn
Bit rate mode : Constant
Bit rate : 128 Kbps
Channel(s) : 2 channels
Sampling rate : 44.1 KHz
Bit depth : 16 bits
Stream size : 66.7 MiB (15%)
Language : English (US)

不知不觉的月亮悄悄照亮夜空是什么歌曲的歌词

求助:月球在苏醒2和3的下载地址或是在线看地址?(不是月球在苏醒1,也不是星际峰会什么的哦)

Moon Rising 720p.BluRay mp4
http://www6.mimima.com/link.php?ref=0CpThWSJ3P

渡りの诗 rewrite的moon线ED 这首歌的歌词大意是什么 求解释

Rewrite of the life 今解き放って
命运的重写 就在此刻解放吧
谁もが 求める欲望
那每个人都在渴求欲望
No more 二度と戻れない道でも
即便已经踏上不归之路
後ろは 振り返るな Don't look back
也绝对不要回头!
もしもこの世界に 
如果这个世界
终わりが来るとして
终将走向毁灭
ボクの魂はどこへ行くのだろう 
那我的魂魄又将前往何方?
思い通りじゃない 
非我所望
変わらない日々に
这一成不变的日常
I could say Goodbye 迷いはない
挥手向它告别 没有丝毫迷茫
この手に宿る冲动
冲动在我双手激荡
何もかも壊したい
破坏之欲汹涌高涨
守られてた日常が 崩れはじめる
守护至今的日常 已经开始瓦解
目覚めてくこのチカラ 制御不能
渐渐苏醒的力量 我已无法控制
Rewrite of the life 今解き放って
命运的重写 就在此刻解放吧
谁もが 求める欲望
那每个人都在渴求的欲望
No more 二度と戻れない道でも
即便已经踏上不归之路
後ろは 振り返るな Don't look back
也绝对不要回头!
迫り来る破灭に 
毁灭正在步步逼近
キミは気付いてるか
你察觉到了吗
この冷たい风は 何処へ吹き抜ける?
这冰冷的风 将会吹往何方?
逃げられやしないと
已经无法逃避
わかっているんだ
这一点 我深深知晓
Methods of Madness 答えはない
狂乱的秩序 寻找不到答案
睑に浮かぶ残像
时隐时现的残像
タナトスの诱い
塔纳托斯的引诱
だけど杀し合うために 生まれたんじゃない
尽管如此 相互残杀 并非我等诞于此世的理由
梦の果て 成れの果て 诸行无常 
梦尽幻灭 无路可退 诸行无常
Rewrite of the life 今ブチ壊せ
命运的改写 就在此刻粉碎吧
绮丽な 嘘で固めたMask
那漂亮谎言堆砌出的伪装
One more 新しい世界目指すんだ
开辟一个崭新的世界吧
时代を 书き换えろ Brand New Day
将旧的时代重新改写吧
Rewrite of the life 今解き放って 
命运的重写 就在此刻解放吧
谁もが 求める欲望
那每个人都在渴求欲望
No more 二度と戻れない道でも 
即便是踏上不归之路
後ろは 振り返るな Don't look back
也绝对不要回头
时代を 书き换えろ Brand New Day

为什么不公布月球背面的图片??

所谓月球背面,是指背向地球的月球半个球面。就月球自身来说,无所谓背面与正面。由于月球在围绕地球公转,自身也在自转。凑巧的是,月球公转一周的时间恰好与月球自转一周的时间相等,都是27.3天。于是,我们在地球上的人,就永远只能看到月球的一面(正面),而不能看到另一面(背面)。
月球作为一个整体,各部分大体上应当是差不多的。因此,月球的正面与背面,虽然会有些差别,但不是本质性的。因为我们看不到,就产生种种遐想甚至传说,虽然可以理解,但毕竟是不科学的。

为什么月球背面不公开

我只知道GG是指游戏中一人认输后敲出的字母。
还有,GG是指你很棒。

  • 1.龙之谷手游有新开区吗
  • 2.nba梦之队3官网
  • 3.迷你世界的冒险模式怎么玩
  • 4.游戏安全运营是什么
  • 5.拳皇97排名玩家实力排名
  • 6.我接的黑人客人好痛苦
  • 7.霸王的梦想无限刷装备
  • 8.传奇手游怎么升级快